Windows Phone | Stoner Metal | Sakamoto desu ga OVA Sub Indo Batch Lengkap
 


 

DNS SERVER AENDERNum der staatlichen Zensur zu umgehen. Sollten wir von eurem Provider geseprrt werden, nutzt den TOR BROWSER oder ändert euren DNS SERVER.

Filmwünsche können bei uns im Forum abgegeben werden

Wir Speichern Nicht




 
 
 
Top Releases
Stronger.2017.German.720p.Bl...
Stronger.2017.German.DL.1080...
Nur.Gott.kann.mich.richten.2...
Nur.Gott.kann.mich.richten.2...
Endspiel.2018.German.DL.Doku...
Endspiel.2018.German.DL.Doku...
Deadpool.2.THEATRiCAL.2018.G...
Deadpool.2.THEATRiCAL.2018.G...
Mercury.13.2018.German.DL.Do...
Mercury.13.2018.German.DL.Do...

Cinedubs
The.Equalizer.2.TS.LD.German...
Der.Hauptmann.2017.German.AA...
Der.Hauptmann.2017.German.AA...
Ghost.Stories.2017.German.AC...
Ghost.Stories.2017.German.AC...
Oceans.8.German.DL.AC3.Dubbe...
Oceans.8.German.DL.AC3.Dubbe...
Hereditary.Das.Vermaechtnis....
Hereditary.Das.Vermaechtnis....
Oceans.8.2018.German.DL.AC3D...

Neuerscheinungen 2017-18
Kings.2017.German.720p.BluRa...
Kings.2017.German.DL.1080p.B...
Winchester.Das.Haus.der.Verd...
Bodycheck.Youngblood.1986.MU...
The.End.2017.GERMAN.DUAL.COM...
The.End.2017.GERMAN.1080p.Bl...
Vater.des.Jahres.2018.German...
The.End.2017.GERMAN.720p.Blu...
Derren.Brown.The.Push.2018.G...
Derren.Brown.The.Push.2018.G...

XXX
WankItNow.17.09.02.Tammie.Le...
TrueAnal.18.08.16.Jillian.Ja...
WildOnCam.18.08.20.Alana.Cru...
WickedPictures.Camera.Angle....
TransAngels.18.08.06.Valenti...
Tiny4K.18.08.16.Chloe.Temple...
WankItNow.17.09.11.Candi.Kay...
WetAndPuffy.18.08.15.Sophia....
VivThomas.18.08.17.Adel.More...
WildOnCam.18.08.21.Melody.Pa...
TransAngels.18.08.13.Domino....
TonightsGirlfriend.18.08.17....
WickedPictures.Camera.Angle....
TrueAnal.18.08.21.Brooke.Ber...
WetAndPissy.18.08.21.Anna.Ra...
Throated.18.08.17.Zoey.Foxx....
Vixen.18.08.17.Emily.Willis....
Time.To.Fuck.XXX.720p.WEBRip...
WhiteGhetto.18.08.21.Lynn.Lo...
TransAngels.18.08.04.Aubrey....

3D
Avengers.Infinity.War.3D.201...
Rampage.Big.Meets.Bigger.3D....
Rampage.Big.Meets.Bigger.3D....
Rampage.Big.Meets.Bigger.3D....
Winter.Games.3D.2013.DUAL.CO...
Tomb.Raider.3D.2018.German.7...
Rampage.Big.Meets.Bigger.3D....
Rampage.Big.Meets.Bigger.3D....
Tomb.Raider.3D.2018.MULTi.CO...
Pacific.Rim.Uprising.3D.2018...
Ready.Player.One.3D.2018.Ger...
Rampage.-.Big.Meets.Bigger.2...
Ready.Player.One.2018.3D.HOU...
Ready.Player.One.2018.3D.HSB...
Ready.Player.One.3D.2018.MUL...

Old_Stuff
21.2008.German.DL.1080p.BluR...
Achtung.fertig.WK.Swissgerma...
The.Ouija.Exorcism.2015.MULT...
Meine.liebe.Rabenmutter.germ...
Da.Vincis.Demons.S01.Complet...
Eragon.Das.Vermaechtnis.der....
Adele.und.das.Geheimnis.des....
Die.fabelhafte.Welt.der.Amel...
Haus.des.Geldes.S01.German.M...
How.I.Met.Your.Mother.S01.Ge...
The.Dark.Knight.Rises.2012.M...
Weissensee.S03.2015.GERMAN.C...
Weissensee.S01+S02.2010.GERM...
Die.Unglaublichen.-.The.Incr...
Der.grosse.Trick.1978.German...

Filme
Celeste.und.Jesse.German.DL....
CBGB.2013.GERMAN.AC3D.DL.108...
Unsere.Erde.2.2017.German.DT...
Unsere.Erde.2.2017.German.DT...
Unsere.Erde.2.2017.German.DT...
Winchester.Das.Haus.der.Verd...
Cabal.-.Die.Brut.der.Nacht.C...
Car.Wash.1976.German.AC3D.DL...
Feuer.ueber.England.1937.Ger...
Sin.City.2005.DTS-HD.German....
Elliot.das.Schmunzelmonster....
Nur.fuer.Offiziere.1964.Germ...
The.Last.Man.On.Earth.S04.Ge...
The.Last.Man.On.Earth.S04.Ge...
Arrow.S06.GERMAN.DL.1080p.HD...
Arrow.S06.GERMAN.DL.720p.HDT...
Razorback.Kampfkoloss.der.Ho...
Rails.and.Ties.-.Aufbruch.in...
Deadpool.2.Super.Duper.Cut.2...
Passenger.Legs.of.Steel.2015...
Fear.The.Walking.Dead.S04.Ge...
Fear.The.Walking.Dead.S04.Ge...
Complications.S01.COMPLETE.G...
Blood.And.Flowers.Der.Waecht...

 
 
Banshee.S03.COMPLETE.German.DL.1080p.BluRay.x264-RSG

Jahr: 2015
Genre: Action | Krimi | Drama
Sprache: Deutsch DTS | Englisch DTS
Laufzeit: 50min je Folge
Bitrate: 8900 Kbps
Format: MKV
Größe: 4 GB je Folge
Release:

Beschreibung:

Im Zentrum der US-Serie „Banshee“ steht ein ehemaliger Betrüger und Kampfsport-Spezialist, der die Seiten wechselt. Oder auch nicht, denn er ist in die Rolle eines ermordeten Sheriffs im Amerika der Gegenwart geschlüpft. Sein Amtsbezirk liegt in einem stark von Amish bewohnten County des Bundesstaats Pennsylvania.



General
Complete name                            : Banshee.S03E01.Feuerkaempfe.German.DL.1080p.BluRay.x264-RSG\rsg-banshee-s03e01-1080p.mkv
Format                                   : Matroska
Format version                           : Version 2
File size                                : 4.02 GiB
Duration                                 : 50mn 22s
Overall bit rate                         : 11.4 Mbps
Writing application                      : mkvmerge v4.1.1 ('Bouncin' Back') built on Jul  3 2010 22:54:08
Writing library                          : libebml v1.0.0 + libmatroska v1.0

Video
ID                                       : 1
Format                                   : AVC
Format/Info                              : Advanced Video Codec
Format profile                           : [email protected]
Format settings, CABAC                   : Yes
Format settings, ReFrames                : 4 frames
Codec ID                                 : V_MPEG4/ISO/AVC
Duration                                 : 50mn 22s
Bit rate                                 : 8 922 Kbps
Width                                    : 1 920 pixels
Height                                   : 1 080 pixels
Display aspect ratio                     : 16:9
Frame rate mode                          : Constant
Frame rate                               : 23.976 fps
Color space                              : YUV
Chroma subsampling                       : 4:2:0
Bit depth                                : 8 bits
Scan type                                : Progressive
Bits/(Pixel*Frame)                       : 0.179
Stream size                              : 3.14 GiB (78%)
Writing library                          : x264 core 148 r2665 a01e339
Encoding settings                        : cabac=1 / ref=4 / deblock=1:-3:-3 / analyse=0x3:0x113 / me=umh / subme=8 / psy=1 / psy_rd=1.00:0.15 / mixed_ref=1 / me_range=16 / chroma_me=1 / trellis=1 / 8x8dct=1 / cqm=0 / deadzone=21,11 / fast_pskip=0 / chroma_qp_offset=-3 / threads=18 / lookahead_threads=3 / sliced_threads=0 / nr=0 / decimate=1 / interlaced=0 / bluray_compat=0 / constrained_intra=0 / bframes=3 / b_pyramid=2 / b_adapt=1 / b_bias=0 / direct=1 / weightb=1 / open_gop=0 / weightp=2 / keyint=240 / keyint_min=23 / scenecut=40 / intra_refresh=0 / rc_lookahead=40 / rc=crf / mbtree=1 / crf=19.0 / qcomp=0.60 / qpmin=10 / qpmax=69 / qpstep=4 / ip_ratio=1.40 / aq=1:1.00
Language                                 : English
Default                                  : Yes
Forced                                   : No

Audio #1
ID                                       : 2
Format                                   : DTS
Format/Info                              : Digital Theater Systems
Mode                                     : 16
Format settings, Endianness              : Big
Codec ID                                 : A_DTS
Duration                                 : 50mn 22s
Bit rate mode                            : Constant
Bit rate                                 : 768 Kbps
Channel(s)                               : 6 channels
Channel positions                        : Front: L C R, Side: L R, LFE
Sampling rate                            : 48.0 KHz
Bit depth                                : 24 bits
Compression mode                         : Lossy
Stream size                              : 277 MiB (7%)
Language                                 : German
Default                                  : Yes
Forced                                   : No

Audio #2
ID                                       : 3
Format                                   : DTS
Format/Info                              : Digital Theater Systems
Mode                                     : 16
Format settings, Endianness              : Big
Codec ID                                 : A_DTS
Duration                                 : 50mn 22s
Bit rate mode                            : Constant
Bit rate                                 : 1 509 Kbps
Channel(s)                               : 6 channels
Channel positions                        : Front: L C R, Side: L R, LFE
Sampling rate                            : 48.0 KHz
Bit depth                                : 24 bits
Compression mode                         : Lossy
Stream size                              : 544 MiB (13%)
Language                                 : English
Default                                  : No
Forced                                   : No

Text
ID                                       : 4
Format                                   : UTF-8
Codec ID                                 : S_TEXT/UTF8
Codec ID/Info                            : UTF-8 Plain Text
Language                                 : German
Default                                  : Yes
Forced                                   : No

Menu
00:00:00.000                             : en:00:00:00.000
00:04:26.266                             : en:00:04:26.266
00:13:11.874                             : en:00:13:11.874
00:20:45.410                             : en:00:20:45.410
00:32:39.123                             : en:00:32:39.123
00:43:34.236                             : en:00:43:34.236
00:48:47.633                             : en:00:48:47.633
00:50:22.269                             : en:00:50:22.269



Download:
Share-Online.biz Share-Online.bizShare-Online.bizShare-Online.biz | Uploaded.net Uploaded.netUploaded.netUploaded.net
 

Kommentare