Advertising | Anthony Bourdain Parts Unknown S04E03 Paraguay 720p HDTV x264-DHD [eztv] | McAfee Agent v5 5 1 Mac
 


 

DNS SERVER AENDERNum der staatlichen Zensur zu umgehen. Sollten wir von eurem Provider geseprrt werden, nutzt den TOR BROWSER oder ändert euren DNS SERVER.

Filmwünsche können bei uns im Forum abgegeben werden

Wir Speichern Nicht




 
 
 
Top Releases
Stronger.2017.German.720p.Bl...
Nur.Gott.kann.mich.richten.2...
Nur.Gott.kann.mich.richten.2...
Endspiel.2018.German.DL.Doku...
Endspiel.2018.German.DL.Doku...
Deadpool.2.THEATRiCAL.2018.G...
Deadpool.2.THEATRiCAL.2018.G...
Mercury.13.2018.German.DL.Do...
Mercury.13.2018.German.DL.Do...
Die.Wolken.von.Sils.Maria.20...

Cinedubs
The.Equalizer.2.TS.LD.German...
Der.Hauptmann.2017.German.AA...
Der.Hauptmann.2017.German.AA...
Ghost.Stories.2017.German.AC...
Ghost.Stories.2017.German.AC...
Oceans.8.German.DL.AC3.Dubbe...
Oceans.8.German.DL.AC3.Dubbe...
Hereditary.Das.Vermaechtnis....
Hereditary.Das.Vermaechtnis....
Oceans.8.2018.German.DL.AC3D...

Neuerscheinungen 2017-18
Kings.2017.German.720p.BluRa...
Kings.2017.German.DL.1080p.B...
Winchester.Das.Haus.der.Verd...
Bodycheck.Youngblood.1986.MU...
The.End.2017.GERMAN.DUAL.COM...
The.End.2017.GERMAN.1080p.Bl...
Vater.des.Jahres.2018.German...
The.End.2017.GERMAN.720p.Blu...
Derren.Brown.The.Push.2018.G...
Derren.Brown.The.Push.2018.G...

XXX
StrandedTeens.18.08.16.Sicil...
SlimeWave.18.08.20.Cutie.Is....
Your.Moms.Twat.Is.Hot.9.XXX....
PureTaboo.18.08.16.Elena.Kos...
SweetheartVideo.Lesbian.Step...
Public.Sex.8.XXX.1080p.WEBRi...
Swallowed.18.08.20.Giselle.P...
PublicDisgrace.18.08.20.Mona...
Yonitale.18.08.15.Sicilia.Y....
PublicAgent.18.08.21.Sherry....
PornMegaLoad.18.08.20.Desire...
WankItNow.17.09.02.Tammie.Le...
TrueAnal.18.08.16.Jillian.Ja...
WildOnCam.18.08.20.Alana.Cru...
WickedPictures.Camera.Angle....
TransAngels.18.08.06.Valenti...
Tiny4K.18.08.16.Chloe.Temple...
WankItNow.17.09.11.Candi.Kay...
WetAndPuffy.18.08.15.Sophia....
VivThomas.18.08.17.Adel.More...

3D
Avengers.Infinity.War.3D.201...
Rampage.Big.Meets.Bigger.3D....
Rampage.Big.Meets.Bigger.3D....
Rampage.Big.Meets.Bigger.3D....
Winter.Games.3D.2013.DUAL.CO...
Tomb.Raider.3D.2018.German.7...
Rampage.Big.Meets.Bigger.3D....
Rampage.Big.Meets.Bigger.3D....
Tomb.Raider.3D.2018.MULTi.CO...
Pacific.Rim.Uprising.3D.2018...
Ready.Player.One.3D.2018.Ger...
Rampage.-.Big.Meets.Bigger.2...
Ready.Player.One.2018.3D.HOU...
Ready.Player.One.2018.3D.HSB...
Ready.Player.One.3D.2018.MUL...

Old_Stuff
21.2008.German.DL.1080p.BluR...
Achtung.fertig.WK.Swissgerma...
The.Ouija.Exorcism.2015.MULT...
Meine.liebe.Rabenmutter.germ...
Da.Vincis.Demons.S01.Complet...
Eragon.Das.Vermaechtnis.der....
Adele.und.das.Geheimnis.des....
Die.fabelhafte.Welt.der.Amel...
Haus.des.Geldes.S01.German.M...
How.I.Met.Your.Mother.S01.Ge...
The.Dark.Knight.Rises.2012.M...
Weissensee.S03.2015.GERMAN.C...
Weissensee.S01+S02.2010.GERM...
Die.Unglaublichen.-.The.Incr...
Der.grosse.Trick.1978.German...

Filme
Missions.S01.GERMAN.DUBBED.7...
Narcos.S03.COMPLETE.German.D...
Gone.Baby.Gone.2007.German.D...
London.Boulevard.2010.German...
Celeste.und.Jesse.German.DL....
CBGB.2013.GERMAN.AC3D.DL.108...
Unsere.Erde.2.2017.German.DT...
Unsere.Erde.2.2017.German.DT...
Unsere.Erde.2.2017.German.DT...
Winchester.Das.Haus.der.Verd...
Cabal.-.Die.Brut.der.Nacht.C...
Car.Wash.1976.German.AC3D.DL...
Feuer.ueber.England.1937.Ger...
Sin.City.2005.DTS-HD.German....
Elliot.das.Schmunzelmonster....
Nur.fuer.Offiziere.1964.Germ...
The.Last.Man.On.Earth.S04.Ge...
The.Last.Man.On.Earth.S04.Ge...
Arrow.S06.GERMAN.DL.1080p.HD...
Arrow.S06.GERMAN.DL.720p.HDT...
Razorback.Kampfkoloss.der.Ho...
Rails.and.Ties.-.Aufbruch.in...
Deadpool.2.Super.Duper.Cut.2...
Passenger.Legs.of.Steel.2015...

 
 
IMDb http://www.imdb.com/title/tt2017109/10
Banshee.Small.Town.Big.Secrets.S04.COMPLETE.GERMAN.DL.DUBBED.720p.HDTV.x264-TVP

Jahr: 2016
Genre: Action | Krimi | Drama
Sprache: Deutsch AC3 | Englisch AC3
Laufzeit: 55min je Folge
Bitrate: 2600 Kbps
Format: MKV
Größe: 1,3 GB je Folge
Release:

Beschreibung:

Im Zentrum der US-Serie „Banshee“ steht ein ehemaliger Betrüger und Kampfsport-Spezialist, der die Seiten wechselt. Oder auch nicht, denn er ist in die Rolle eines ermordeten Sheriffs im Amerika der Gegenwart geschlüpft. Sein Amtsbezirk liegt in einem stark von Amish bewohnten County des Bundesstaats Pennsylvania.

Da die Hauptfigur der Serie Banshee ein Betrüger ist, hält sich der Hauptcharakter natürlich auch bei der Ausübung seiner Pflichten nur bedingt an die Regeln, er geht eher nach seinem Gerechtigkeitsempfinden als nach dem geltenden Recht vor. Und gleichzeitig verfolgt er seine eigenen betrügerischen Pläne, während er versucht den Gangstern zu entgehen, die er einst betrogen hat.

 

enthaltene Folgen (Staffel komplett):

Banshee.Small.Town.Big.Secrets.S04E01.Der.Mann.aus.den.Bergen.GERMAN.DL.DUBBED.720p.HDTV.x264-TVP

Banshee.Small.Town.Big.Secrets.S04E02.Drogengeschaefte.GERMAN.DL.DUBBED.720p.HDTV.x264-TVP

Banshee.Small.Town.Big.Secrets.S04E03.Job.GERMAN.DL.DUBBED.720p.HDTV.x264-TVP

Banshee.Small.Town.Big.Secrets.S04E04.Innocent.Might.Be.a.Bit.of.a.Stretch.GERMAN.DL.DUBBED.720p.HDTV.x264-TVP

Banshee.Small.Town.Big.Secrets.S04E05.Durchsetzungstaerke.GERMAN.DL.DUBBED.720p.HDTV.x264-TVP

Banshee.Small.Town.Big.Secrets.S04E06.Fuehrungswechsel.GERMAN.DL.DUBBED.720p.HDTV.x264-TVP

Banshee.Small.Town.Big.Secrets.S04E07.Teufelsbrut.GERMAN.DL.DUBBED.720p.HDTV.x264-TVP

Banshee.Small.Town.Big.Secrets.S04E08.Requiem.GERMAN.DL.DUBBED.720p.HDTV.x264-TVP NEU



General
Complete name                            : Banshee.Small.Town.Big.Secrets.S04E01.Der.Mann.aus.den.Bergen.GERMAN.DL.DUBBED.720p.HDTV.x264-TVP\tvp-banshee-s04e01-720p.mkv
Format                                   : Matroska
Format version                           : Version 4 / Version 2
File size                                : 1.28 GiB
Duration                                 : 55mn 14s
Overall bit rate                         : 3 324 Kbps
Movie name                               : Banshee.Small.Town.Big.Secrets.S04E01.Der.Mann.aus.den.Bergen.GERMAN.DL.DUBBED.720p.HDTV.x264-TVP
Encoded date                             : UTC 2016-05-19 20:30:29
Writing application                      : mkvmerge v8.5.2 ('Crosses') 64bit
Writing library                          : libebml v1.3.3 + libmatroska v1.4.4
DURATION                                 : 00:55:14.336000000
NUMBER_OF_FRAMES                         : 103573
NUMBER_OF_BYTES                          : 159088128
_STATISTICS_WRITING_APP                  : mkvmerge v8.5.2 ('Crosses') 64bit
_STATISTICS_WRITING_DATE_UTC             : 2016-05-19 20:30:29
_STATISTICS_TAGS                         : BPS DURATION NUMBER_OF_FRAMES NUMBER_OF_BYTES

Video
ID                                       : 1
Format                                   : AVC
Format/Info                              : Advanced Video Codec
Format profile                           : [email protected]
Format settings, CABAC                   : Yes
Format settings, ReFrames                : 5 frames
Codec ID                                 : V_MPEG4/ISO/AVC
Duration                                 : 55mn 14s
Bit rate                                 : 2 682 Kbps
Width                                    : 1 280 pixels
Height                                   : 720 pixels
Display aspect ratio                     : 16:9
Frame rate mode                          : Constant
Frame rate                               : 25.000 fps
Original frame rate                      : 23.976 fps
Color space                              : YUV
Chroma subsampling                       : 4:2:0
Bit depth                                : 8 bits
Scan type                                : Progressive
Bits/(Pixel*Frame)                       : 0.116
Stream size                              : 1.03 GiB (81%)
Title                                    : tvp-banshee-s04e01-720p
Writing library                          : x264 core 148 r2692 64f4e24
Encoding settings                        : cabac=1 / ref=5 / deblock=1:-3:-3 / analyse=0x3:0x113 / me=hex / subme=7 / psy=1 / psy_rd=1.00:0.00 / mixed_ref=1 / me_range=16 / chroma_me=1 / trellis=1 / 8x8dct=1 / cqm=0 / deadzone=21,11 / fast_pskip=1 / chroma_qp_offset=-2 / threads=12 / lookahead_threads=2 / sliced_threads=0 / nr=0 / decimate=1 / interlaced=0 / bluray_compat=0 / constrained_intra=0 / bframes=3 / b_pyramid=2 / b_adapt=1 / b_bias=0 / direct=1 / weightb=1 / open_gop=0 / weightp=2 / keyint=240 / keyint_min=23 / scenecut=40 / intra_refresh=0 / rc_lookahead=40 / rc=crf / mbtree=1 / crf=19.0 / qcomp=0.60 / qpmin=0 / qpmax=69 / qpstep=4 / ip_ratio=1.40 / aq=1:1.00
Language                                 : German
Default                                  : Yes
Forced                                   : Yes
Color primaries                          : BT.709
Transfer characteristics                 : BT.709
Matrix coefficients                      : BT.709

Audio #1
ID                                       : 2
Format                                   : AC-3
Format/Info                              : Audio Coding 3
Mode extension                           : CM (complete main)
Format settings, Endianness              : Big
Codec ID                                 : A_AC3
Duration                                 : 55mn 14s
Bit rate mode                            : Constant
Bit rate                                 : 192 Kbps
Channel(s)                               : 2 channels
Channel positions                        : Front: L R
Sampling rate                            : 48.0 KHz
Bit depth                                : 16 bits
Compression mode                         : Lossy
Stream size                              : 75.9 MiB (6%)
Language                                 : German
Default                                  : Yes
Forced                                   : Yes

Audio #2
ID                                       : 3
Format                                   : AC-3
Format/Info                              : Audio Coding 3
Mode extension                           : CM (complete main)
Format settings, Endianness              : Big
Codec ID                                 : A_AC3
Duration                                 : 55mn 14s
Bit rate mode                            : Constant
Bit rate                                 : 384 Kbps
Channel(s)                               : 6 channels
Channel positions                        : Front: L C R, Side: L R, LFE
Sampling rate                            : 48.0 KHz
Bit depth                                : 16 bits
Compression mode                         : Lossy
Stream size                              : 152 MiB (12%)
Language                                 : English
Default                                  : No
Forced                                   : No



Download:
Share-Online.biz Share-Online.bizShare-Online.bizShare-Online.biz | Uploaded.net Uploaded.netUploaded.netUploaded.net |
 

Kommentare