IMDb: 5 HD Apocalypse Rising | Titanium / Pavane | Icecream PDF Candy Desktop + Activator - Crackingpatching zip
 


 

DNS SERVER AENDERNum der staatlichen Zensur zu umgehen. Sollten wir von eurem Provider geseprrt werden, nutzt den TOR BROWSER oder ändert euren DNS SERVER.

Filmwünsche können bei uns im Forum abgegeben werden

Wir Speichern Nicht




 
 
 
Top Releases
Deadpool.2.Super.Duper.Cut.2...
Diplomatie.2014.German.AC3.1...
Die.Spur.2017.GERMAN.1080p.B...
Die.Spur.2017.GERMAN.720p.Bl...
Ataris.Reise.2018.German.DL....
Ataris.Reise.2018.German.720...
Stronger.2017.German.DL.1080...
Stronger.2017.German.720p.Bl...
Nur.Gott.kann.mich.richten.2...
Nur.Gott.kann.mich.richten.2...

Cinedubs
The.Equalizer.2.TS.LD.German...
Der.Hauptmann.2017.German.AA...
Der.Hauptmann.2017.German.AA...
Ghost.Stories.2017.German.AC...
Ghost.Stories.2017.German.AC...
Oceans.8.German.DL.AC3.Dubbe...
Oceans.8.German.DL.AC3.Dubbe...
Hereditary.Das.Vermaechtnis....
Hereditary.Das.Vermaechtnis....
Oceans.8.2018.German.DL.AC3D...

Neuerscheinungen 2017-18
Luna.2017.German.AC3.1080p.B...
Die.Gesetze.der.Thermodynami...
Die.Gesetze.der.Thermodynami...
Kings.2017.German.720p.BluRa...
Kings.2017.German.DL.1080p.B...
Winchester.Das.Haus.der.Verd...
Bodycheck.Youngblood.1986.MU...
The.End.2017.GERMAN.DUAL.COM...
The.End.2017.GERMAN.1080p.Bl...
Vater.des.Jahres.2018.German...

XXX
WoodmanCastingX.18.06.03.Lin...
PrivateSociety.18.08.15.Audr...
Spizoo.18.08.15.Rocky.Emerso...
PornMegaLoad.18.08.19.Codi.V...
SpyFam.18.08.20.Alina.Lopez....
ThaiGirlsWild.18.08.13.Nicha...
With.Milf.And.Sugar.Please.2...
RoccoSiffredi.18.08.17.Lucia...
Spizoo.18.08.17.Lexi.Lore.Tr...
TeensDoPorn.18.08.20.April.R...
X-Art.18.08.15.Milla.Inside....
ZeroTolerance.Nerdy.Girls.Lo...
RKPrime.18.08.17.Riley.Reid....
PureTaboo.18.08.21.Gracie.Ma...
Yonitale.18.08.17.Nedda.Y.An...
PornMegaLoad.18.08.20.Sofia....
RealWifeStories.18.08.17.Kat...
Public.Sex.8.XXX.720p.WEBRip...
Submissived.18.08.20.Khloe.K...
WoodmanCastingX.18.05.24.Rox...

3D
Avengers.Infinity.War.3D.201...
Rampage.Big.Meets.Bigger.3D....
Rampage.Big.Meets.Bigger.3D....
Rampage.Big.Meets.Bigger.3D....
Winter.Games.3D.2013.DUAL.CO...
Tomb.Raider.3D.2018.German.7...
Rampage.Big.Meets.Bigger.3D....
Rampage.Big.Meets.Bigger.3D....
Tomb.Raider.3D.2018.MULTi.CO...
Pacific.Rim.Uprising.3D.2018...
Ready.Player.One.3D.2018.Ger...
Rampage.-.Big.Meets.Bigger.2...
Ready.Player.One.2018.3D.HOU...
Ready.Player.One.2018.3D.HSB...
Ready.Player.One.3D.2018.MUL...

Old_Stuff
Dracula.The.Dark.Lord.2012.G...
21.2008.German.DL.1080p.BluR...
Achtung.fertig.WK.Swissgerma...
The.Ouija.Exorcism.2015.MULT...
Meine.liebe.Rabenmutter.germ...
Da.Vincis.Demons.S01.Complet...
Eragon.Das.Vermaechtnis.der....
Adele.und.das.Geheimnis.des....
Die.fabelhafte.Welt.der.Amel...
Haus.des.Geldes.S01.German.M...
How.I.Met.Your.Mother.S01.Ge...
The.Dark.Knight.Rises.2012.M...
Weissensee.S03.2015.GERMAN.C...
Weissensee.S01+S02.2010.GERM...
Die.Unglaublichen.-.The.Incr...

Filme
Darkman.1990.Uncut.German.AC...
La.vie.en.rose.2007.BDRip.10...
Narcos.S03D01-3.MULTi.COMPLE...
Made.in.Abyss.-.S01.Vol.1.-....
Thelma.2017.GERMAN.DL.1080p....
Narcos.S03.COMPLETE.German.D...
Tom.Clancys.Jack.Ryan.S01.Ge...
Ozark.S02.COMPLETE.GERMAN.DL...
Ozark.S02.COMPLETE.German.DL...
Ozark.S01.COMPLETE.German.DD...
Ozark.S01.COMPLETE.German.DD...
Tom.Clancys.Jack.Ryan.S01.Ge...
The.Last.Man.On.Earth.S04.Ge...
The.Last.Man.On.Earth.S04.Ge...
Missions.S01.GERMAN.DUBBED.7...
Narcos.S03.COMPLETE.German.D...
Gone.Baby.Gone.2007.German.D...
London.Boulevard.2010.German...
Celeste.und.Jesse.German.DL....
CBGB.2013.GERMAN.AC3D.DL.108...
Unsere.Erde.2.2017.German.DT...
Unsere.Erde.2.2017.German.DT...
Unsere.Erde.2.2017.German.DT...
Winchester.Das.Haus.der.Verd...

 
 
Banshee.Small.Town.Big.Secrets.S04.COMPLETE.GERMAN.DL.DUBBED.1080p.HDTV.x264-TVP

Jahr: 2016
Genre: Action | Krimi | Drama
Sprache: Deutsch AC3 | Englisch AC3
Laufzeit: 55min je Folge
Bitrate: 10 Mbps
Format: MKV
Größe: 4,3 GB je Folge
Release:

Beschreibung:

m Zentrum der US-Serie „Banshee“ steht ein ehemaliger Betrüger und Kampfsport-Spezialist, der die Seiten wechselt. Oder auch nicht, denn er ist in die Rolle eines ermordeten Sheriffs im Amerika der Gegenwart geschlüpft. Sein Amtsbezirk liegt in einem stark von Amish bewohnten County des Bundesstaats Pennsylvania.

Da die Hauptfigur der Serie Banshee ein Betrüger ist, hält sich der Hauptcharakter natürlich auch bei der Ausübung seiner Pflichten nur bedingt an die Regeln, er geht eher nach seinem Gerechtigkeitsempfinden als nach dem geltenden Recht vor. Und gleichzeitig verfolgt er seine eigenen betrügerischen Pläne, während er versucht den Gangstern zu entgehen, die er einst betrogen hat.

 

enthaltene Folgen (Staffel komplett):

Banshee.Small.Town.Big.Secrets.S04E01.Der.Mann.aus.den.Bergen.GERMAN.DL.DUBBED.1080p.HDTV.x264-TVP

Banshee.Small.Town.Big.Secrets.S04E02.Drogengeschaefte.GERMAN.DL.DUBBED.1080p.HDTV.x264-TVP

Banshee.Small.Town.Big.Secrets.S04E03.Job.GERMAN.DL.DUBBED.1080p.HDTV.x264-TVP

Banshee.Small.Town.Big.Secrets.S04E04.Innocent.Might.Be.a.Bit.of.a.Stretch.GERMAN.DL.DUBBED.1080p.HDTV.x264-TVP

Banshee.Small.Town.Big.Secrets.S04E05.Durchsetzungstaerke.GERMAN.DL.DUBBED.1080p.HDTV.x264-TVP

Banshee.Small.Town.Big.Secrets.S04E06.Fuehrungswechsel.GERMAN.DL.DUBBED.1080p.HDTV.x264-TVP

Banshee.Small.Town.Big.Secrets.S04E07.Teufelsbrut.GERMAN.DL.DUBBED.1080p.HDTV.x264-TVP

Banshee.Small.Town.Big.Secrets.S04E08.Requiem.GERMAN.DL.DUBBED.1080p.HDTV.x264-TVP NEU



General
Complete name                            : Banshee.Small.Town.Big.Secrets.S04E01.Der.Mann.aus.den.Bergen.GERMAN.DL.DUBBED.1080p.HDTV.x264-TVP\tvp-banshee-s04e01-1080p.mkv
Format                                   : Matroska
Format version                           : Version 2
File size                                : 4.35 GiB
Duration                                 : 55mn 14s
Overall bit rate                         : 11.3 Mbps
Movie name                               : Banshee.Small.Town.Big.Secrets.S04E01.Der.Mann.aus.den.Bergen.GERMAN.DL.DUBBED.1080p.HDTV.x264-TVP
Encoded date                             : UTC 2016-05-19 20:25:08
Writing application                      : mkvmerge v5.6.0 ('Kenya Kane') built on May 28 2012 06:47:39
Writing library                          : libebml v1.2.2 + libmatroska v1.3.0

Video
ID                                       : 1
Format                                   : AVC
Format/Info                              : Advanced Video Codec
Format profile                           : [email protected]
Format settings, CABAC                   : Yes
Format settings, ReFrames                : 4 frames
Codec ID                                 : V_MPEG4/ISO/AVC
Duration                                 : 55mn 14s
Bit rate                                 : 10.5 Mbps
Width                                    : 1 920 pixels
Height                                   : 1 080 pixels
Display aspect ratio                     : 16:9
Frame rate mode                          : Constant
Frame rate                               : 25.000 fps
Original frame rate                      : 23.976 fps
Color space                              : YUV
Chroma subsampling                       : 4:2:0
Bit depth                                : 8 bits
Scan type                                : Progressive
Bits/(Pixel*Frame)                       : 0.202
Stream size                              : 4.04 GiB (93%)
Title                                    : tvp-banshee-s04e01-1080p
Writing library                          : x264 core 148 r2665+53 6629127 t_mod_Custom [[email protected] X86_64]
Encoding settings                        : cabac=1 / ref=4 / deblock=1:-3:-3 / analyse=0x3:0x113 / me=umh / subme=11 / psy=1 / fade_compensate=0.00 / psy_rd=1.00:0.00 / mixed_ref=1 / me_range=32 / chroma_me=1 / trellis=2 / 8x8dct=1 / cqm=0 / deadzone=21,11 / fast_pskip=0 / chroma_qp_offset=-2 / threads=24 / lookahead_threads=4 / sliced_threads=0 / nr=0 / decimate=0 / interlaced=0 / bluray_compat=0 / constrained_intra=0 / fgo=0 / bframes=8 / b_pyramid=2 / b_adapt=2 / b_bias=0 / direct=3 / weightb=1 / open_gop=0 / weightp=2 / keyint=250 / keyint_min=23 / scenecut=40 / intra_refresh=0 / rc_lookahead=60 / rc=crf / mbtree=0 / crf=17.0000 / qcomp=0.60 / qpmin=0:0:0 / qpmax=69:69:69 / qpstep=4 / vbv_maxrate=62500 / vbv_bufsize=78125 / crf_max=0.0 / nal_hrd=none / filler=0 / ip_ratio=1.40 / pb_ratio=1.30 / aq=3:0.80 / aq-sensitivity=10.00 / aq-factor=1.00:1.00:1.00 / aq2=0 / aq3=0
Language                                 : German
Default                                  : Yes
Forced                                   : Yes
Matrix coefficients                      : BT.709

Audio #1
ID                                       : 2
Format                                   : AC-3
Format/Info                              : Audio Coding 3
Mode extension                           : CM (complete main)
Format settings, Endianness              : Big
Codec ID                                 : A_AC3
Duration                                 : 55mn 14s
Bit rate mode                            : Constant
Bit rate                                 : 192 Kbps
Channel(s)                               : 2 channels
Channel positions                        : Front: L R
Sampling rate                            : 48.0 KHz
Bit depth                                : 16 bits
Compression mode                         : Lossy
Stream size                              : 75.9 MiB (2%)
Language                                 : German
Default                                  : Yes
Forced                                   : Yes

Audio #2
ID                                       : 3
Format                                   : AC-3
Format/Info                              : Audio Coding 3
Mode extension                           : CM (complete main)
Format settings, Endianness              : Big
Codec ID                                 : A_AC3
Duration                                 : 55mn 14s
Bit rate mode                            : Constant
Bit rate                                 : 384 Kbps
Channel(s)                               : 6 channels
Channel positions                        : Front: L C R, Side: L R, LFE
Sampling rate                            : 48.0 KHz
Bit depth                                : 16 bits
Compression mode                         : Lossy
Stream size                              : 152 MiB (3%)
Language                                 : English
Default                                  : No
Forced                                   : No



Download:
Share-Online.biz Share-Online.bizShare-Online.bizShare-Online.biz | Uploaded.net Uploaded.netUploaded.netUploaded.net
 

Kommentare