Watch movie | Su Shangqing | The Darkness and the Light
 


 

DNS SERVER AENDERNum der staatlichen Zensur zu umgehen. Sollten wir von eurem Provider geseprrt werden, nutzt den TOR BROWSER oder ändert euren DNS SERVER.

Filmwünsche können bei uns im Forum abgegeben werden

Wir Speichern Nicht




 
 
 
Top Releases
Der.Hauptmann.2017.German.10...
Der.Hauptmann.2017.German.72...
Ungehorsam.2017.German.DL.10...
Roman.J.Israel.Esq.Die.Wahrh...
Roman.J.Israel.Esq.Die.Wahrh...
Ungehorsam.2017.German.720p....
Ungehorsam.2017.German.DL.10...
A.Beautiful.Day.2017.German....
Der.Hauptmann.2017.GERMAN.CO...
Der.Hauptmann.2017.German.DT...

Cinedubs
Skyscraper.2018.German.AC3LD...
Skyscraper.2018.German.AC3LD...
Die.Biene.Maja.2.Die.Honigsp...
Die.Biene.Maja.2.Die.Honigsp...
Loving.Pablo.2017.German.AC3...
Loving.Pablo.2017.German.AC3...
Oceans.Eight.2018.German.AC3...
Jurassic.World.2.Das.gefalle...
Jurassic.World.2.Das.gefalle...
The.Equalizer.2.TS.LD.German...

Neuerscheinungen 2017-18
Dont.Move.Halt.still.2017.Ge...
Dont.Move.Halt.still.2017.Ge...
Pfad.der.Rache.2017.German.A...
Wendy.2.Freundschaft.fuer.im...
Open.the.Door.2017.German.DL...
Open.the.Door.2017.German.72...
Proud.Mary.2018.German.720p....
Proud.Mary.2018.German.DL.10...
Bad.Boys.1995.COMPLETE.UHD.B...
Der.Hauptmann.2017.German.DT...

XXX
LoneMilf.18.08.04.Krissy.Lyn...
MikaelaWitt.18.05.04.You.Are...
MikaelaWitt.18.08.24.Messy.S...
MikaelaWitt.18.05.18.You.Sis...
MilfHunter.18.07.05.Alexis.F...
MikaelaWitt.18.07.06.Proposi...
MilfBody.18.07.29.Mia.Lelani...
MikaelaWitt.18.08.03.Sissy.P...
MikaelaWitt.18.05.11.Listen....
LoneMilf.18.08.08.Mercedes.C...
LoneMilf.18.08.22.Vanessa.Ca...
MetArtX.18.07.06.Cristin.Swe...
MikaelaWitt.18.07.13.Proposi...
MelenaMariaRya.18.08.22.Wet....
MilfBody.18.08.26.Veronica.A...
MilfBody.18.08.05.Cherie.Dev...
Milfty.18.07.30.Phoenix.Mari...
MikaelaWitt.18.08.17.JOI.Sla...
MetArtX.18.08.27.Ryana.Luxur...
MikaelaWitt.18.06.22.Jerk.Of...

3D
Avengers.Infinity.War.3D.201...
Avengers.Infinity.War.3D.201...
Rampage.Big.Meets.Bigger.3D....
Rampage.Big.Meets.Bigger.3D....
Rampage.Big.Meets.Bigger.3D....
Winter.Games.3D.2013.DUAL.CO...
Tomb.Raider.3D.2018.German.7...
Rampage.Big.Meets.Bigger.3D....
Rampage.Big.Meets.Bigger.3D....
Tomb.Raider.3D.2018.MULTi.CO...
Pacific.Rim.Uprising.3D.2018...
Ready.Player.One.3D.2018.Ger...
Rampage.-.Big.Meets.Bigger.2...
Ready.Player.One.2018.3D.HOU...
Ready.Player.One.2018.3D.HSB...

Old_Stuff
Vikings.S02.German.DL.1080p....
Be.Kind.Rewind.Abgedreht.200...
Be.Kind.Rewind.Abgedreht.200...
Dracula.The.Dark.Lord.2012.G...
21.2008.German.DL.1080p.BluR...
Achtung.fertig.WK.Swissgerma...
The.Ouija.Exorcism.2015.MULT...
Meine.liebe.Rabenmutter.germ...
Da.Vincis.Demons.S01.Complet...
Eragon.Das.Vermaechtnis.der....
Adele.und.das.Geheimnis.des....
Die.fabelhafte.Welt.der.Amel...
Haus.des.Geldes.S01.German.M...
How.I.Met.Your.Mother.S01.Ge...
The.Dark.Knight.Rises.2012.M...

Filme
Unsere.Erde.2.2017.GERMAN.DL...
Die.Spur.2017.GERMAN.DL.1080...
Guilty.of.Romance.2011.Germa...
SIX.S01-S02.COMPLETE.German....
SIX.S01-S02.COMPLETE.German....
The.Last.Man.On.Earth.S04.Ge...
The.Last.Man.On.Earth.S04.Ge...
Arrow.S06.GERMAN.DL.1080p.HD...
Arrow.S06.GERMAN.DL.720p.HDT...
Housefull.Das.Spiel.mit.der....
Legends.of.Tomorrow.S03.GERM...
Elementary.S06.German.Dubbed...
Underground.Fighter.2006.Ger...
Und.wenn.wir.alle.zusammenzi...
The.Living.and.the.Dead.2006...
The.Little.Shop.Of.Horrors.1...
Blutgletscher.2013.German.10...
A.Breath.Away.2018.German.DT...
A.Breath.Away.2018.German.DT...
Die.Reise.des.jungen.Che.200...
Kaeptn.Blackbeards.Spuk-Kasc...
Die.Klavierspielerin.2001.Ge...
The.Quiet.American.Der.Still...
Junebug.2005.German.AC3D.DL....

 
 
A.Breath.Away.2018.German.DTS.1080p.BluRay.x264-CiNEDOME

Jahr: 2018
Genre: Drama
Sprache: Deutsch DTS
Laufzeit: 1h 29mn
Bitrate: 9 024 Kbps
Format: MKV
Größe: 5.61 GiB
Release:

Beschreibung:

Nach einem Erdbeben im Herzen von Paris wird die komplette Stadt blitzartig von einem dichten Nebel überflutet, der nach nur kurzen Atemzügen tödlich ist. Das Pärchen Mathieu und Anna, welches sich rechtzeitig ins oberste Stockwerk des Hauses retten konnte, gehört zu den wenigen Überlebenden. Tage nach der Katastrophe ist immer noch keine Rettung in Sicht und der Nebel steigt bedrohlich an. Mit außergewöhnlichen Methoden werden die beiden versuchen müssen, dem Nebel zu entkommen und ihre Tochter zu retten!



Complete name                            : cd-abreawa1080.mkv
Format                                   : Matroska
Format version                           : Version 2
File size                                : 5.61 GiB
Duration                                 : 1h 29mn
Overall bit rate mode                    : Variable
Overall bit rate                         : 9 024 Kbps
Encoded date                             : UTC 2018-09-05 05:43:48
Writing application                      : mkvmerge v25.0.0 ('Prog Noir') 64-bit
Writing library                          : libebml v1.3.6 + libmatroska v1.4.9
DURATION                                 : 01:22:15.461000000
NUMBER_OF_FRAMES                         : 627
NUMBER_OF_BYTES                          : 4190516
_STATISTICS_WRITING_APP                  : mkvmerge v25.0.0 ('Prog Noir') 64-bit
_STATISTICS_WRITING_DATE_UTC             : 2018-09-05 05:43:48
_STATISTICS_TAGS                         : BPS DURATION NUMBER_OF_FRAMES NUMBER_OF_BYTES

Video
ID                                       : 1
Format                                   : AVC
Format/Info                              : Advanced Video Codec
Format profile                           : [email protected]
Format settings, CABAC                   : Yes
Format settings, ReFrames                : 4 frames
Codec ID                                 : V_MPEG4/ISO/AVC
Duration                                 : 1h 29mn
Bit rate mode                            : Variable
Bit rate                                 : 7 336 Kbps
Maximum bit rate                         : 15.0 Mbps
Width                                    : 1 920 pixels
Height                                   : 800 pixels
Display aspect ratio                     : 2.40:1
Frame rate mode                          : Constant
Frame rate                               : 23.976 fps
Color space                              : YUV
Chroma subsampling                       : 4:2:0
Bit depth                                : 8 bits
Scan type                                : Progressive
Bits/(Pixel*Frame)                       : 0.199
Stream size                              : 4.56 GiB (81%)
Writing library                          : x264 core 155 r2901 7d0ff22
Encoding settings                        : cabac=1 / ref=5 / deblock=1:0:0 / analyse=0x3:0x113 / me=hex / subme=8 / psy=1 / psy_rd=1.00:0.00 / mixed_ref=1 / me_range=16 / chroma_me=1 / trellis=2 / 8x8dct=1 / cqm=0 / deadzone=21,11 / fast_pskip=1 / chroma_qp_offset=-2 / threads=12 / lookahead_threads=2 / sliced_threads=0 / slices=4 / nr=0 / decimate=1 / interlaced=0 / bluray_compat=1 / constrained_intra=0 / bframes=3 / b_pyramid=1 / b_adapt=1 / b_bias=0 / direct=3 / weightb=1 / open_gop=1 / weightp=1 / keyint=23 / keyint_min=1 / scenecut=40 / intra_refresh=0 / rc_lookahead=23 / rc=crf / mbtree=1 / crf=18.0 / qcomp=0.60 / qpmin=0 / qpmax=51 / qpstep=4 / vbv_maxrate=15000 / vbv_bufsize=15000 / crf_max=0.0 / nal_hrd=vbr / filler=0 / ip_ratio=1.40 / aq=1:1.00
Default                                  : Yes
Forced                                   : No
Color primaries                          : BT.709
Transfer characteristics                 : BT.709
Matrix coefficients                      : BT.709

Audio
ID                                       : 2
Format                                   : DTS
Format/Info                              : Digital Theater Systems
Mode                                     : 16
Format settings, Endianness              : Big
Codec ID                                 : A_DTS
Duration                                 : 1h 29mn
Bit rate mode                            : Constant
Bit rate                                 : 1 509 Kbps
Channel(s)                               : 6 channels
Channel positions                        : Front: L C R, Side: L R, LFE
Sampling rate                            : 48.0 KHz
Bit depth                                : 24 bits
Compression mode                         : Lossy
Stream size                              : 961 MiB (17%)
Language                                 : German
Default                                  : Yes
Forced                                   : No

Text #1
ID                                       : 3
Format                                   : UTF-8
Codec ID                                 : S_TEXT/UTF8
Codec ID/Info                            : UTF-8 Plain Text
Language                                 : German
Default                                  : Yes
Forced                                   : Yes

Text #2
ID                                       : 4
Format                                   : VobSub
Muxing mode                              : zlib
Codec ID                                 : S_VOBSUB
Codec ID/Info                            : The same subtitle format used on DVDs
Language                                 : German
Default                                  : No
Forced                                   : No



Download:
Share Online Share OnlineShare OnlineShare Online
 

Kommentare