Fifty Shades of Black | VirusTotal | Les Vieux fourneaux (2018) 1080p Telecharger
 


 

DNS SERVER AENDERNum der staatlichen Zensur zu umgehen. Sollten wir von eurem Provider geseprrt werden, nutzt den TOR BROWSER oder ändert euren DNS SERVER.

Filmwünsche können bei uns im Forum abgegeben werden

Wir Speichern Nicht




 
 
 
Top Releases
Der.Hauptmann.2017.German.10...
Der.Hauptmann.2017.German.72...
Ungehorsam.2017.German.DL.10...
Roman.J.Israel.Esq.Die.Wahrh...
Roman.J.Israel.Esq.Die.Wahrh...
Ungehorsam.2017.German.720p....
Ungehorsam.2017.German.DL.10...
A.Beautiful.Day.2017.German....
Der.Hauptmann.2017.GERMAN.CO...
Der.Hauptmann.2017.German.DT...

Cinedubs
Die.Biene.Maja.2.Die.Honigsp...
Die.Biene.Maja.2.Die.Honigsp...
Loving.Pablo.2017.German.AC3...
Loving.Pablo.2017.German.AC3...
Oceans.Eight.2018.German.AC3...
Jurassic.World.2.Das.gefalle...
Jurassic.World.2.Das.gefalle...
The.Equalizer.2.TS.LD.German...
Oceans.8.German.DL.AC3.Dubbe...
Oceans.8.German.DL.AC3.Dubbe...

Neuerscheinungen 2017-18
Dont.Move.Halt.still.2017.Ge...
Dont.Move.Halt.still.2017.Ge...
Pfad.der.Rache.2017.German.A...
Wendy.2.Freundschaft.fuer.im...
Open.the.Door.2017.German.DL...
Open.the.Door.2017.German.72...
Proud.Mary.2018.German.720p....
Proud.Mary.2018.German.DL.10...
Bad.Boys.1995.COMPLETE.UHD.B...
Der.Hauptmann.2017.German.DT...

XXX
MikaelaWitt.18.05.18.You.Sis...
MilfHunter.18.07.05.Alexis.F...
MikaelaWitt.18.07.06.Proposi...
MilfBody.18.07.29.Mia.Lelani...
MikaelaWitt.18.08.03.Sissy.P...
MikaelaWitt.18.05.11.Listen....
LoneMilf.18.08.08.Mercedes.C...
LoneMilf.18.08.22.Vanessa.Ca...
MetArtX.18.07.06.Cristin.Swe...
MikaelaWitt.18.07.13.Proposi...
MelenaMariaRya.18.08.22.Wet....
MilfBody.18.08.26.Veronica.A...
MilfBody.18.08.05.Cherie.Dev...
Milfty.18.07.30.Phoenix.Mari...
MikaelaWitt.18.08.17.JOI.Sla...
MetArtX.18.08.27.Ryana.Luxur...
MikaelaWitt.18.06.22.Jerk.Of...
MikaelaWitt.18.06.08.Your.Wi...
MikaelaWitt.18.08.10.Sissy.B...
MikaelaWitt.18.07.20.Smell.O...

3D
Avengers.Infinity.War.3D.201...
Avengers.Infinity.War.3D.201...
Rampage.Big.Meets.Bigger.3D....
Rampage.Big.Meets.Bigger.3D....
Rampage.Big.Meets.Bigger.3D....
Winter.Games.3D.2013.DUAL.CO...
Tomb.Raider.3D.2018.German.7...
Rampage.Big.Meets.Bigger.3D....
Rampage.Big.Meets.Bigger.3D....
Tomb.Raider.3D.2018.MULTi.CO...
Pacific.Rim.Uprising.3D.2018...
Ready.Player.One.3D.2018.Ger...
Rampage.-.Big.Meets.Bigger.2...
Ready.Player.One.2018.3D.HOU...
Ready.Player.One.2018.3D.HSB...

Old_Stuff
Vikings.S02.German.DL.1080p....
Be.Kind.Rewind.Abgedreht.200...
Be.Kind.Rewind.Abgedreht.200...
Dracula.The.Dark.Lord.2012.G...
21.2008.German.DL.1080p.BluR...
Achtung.fertig.WK.Swissgerma...
The.Ouija.Exorcism.2015.MULT...
Meine.liebe.Rabenmutter.germ...
Da.Vincis.Demons.S01.Complet...
Eragon.Das.Vermaechtnis.der....
Adele.und.das.Geheimnis.des....
Die.fabelhafte.Welt.der.Amel...
Haus.des.Geldes.S01.German.M...
How.I.Met.Your.Mother.S01.Ge...
The.Dark.Knight.Rises.2012.M...

Filme
Guilty.of.Romance.2011.Germa...
SIX.S01-S02.COMPLETE.German....
SIX.S01-S02.COMPLETE.German....
The.Last.Man.On.Earth.S04.Ge...
The.Last.Man.On.Earth.S04.Ge...
Arrow.S06.GERMAN.DL.1080p.HD...
Arrow.S06.GERMAN.DL.720p.HDT...
Housefull.Das.Spiel.mit.der....
Legends.of.Tomorrow.S03.GERM...
Elementary.S06.German.Dubbed...
Underground.Fighter.2006.Ger...
Und.wenn.wir.alle.zusammenzi...
The.Living.and.the.Dead.2006...
The.Little.Shop.Of.Horrors.1...
Blutgletscher.2013.German.10...
A.Breath.Away.2018.German.DT...
A.Breath.Away.2018.German.DT...
Die.Reise.des.jungen.Che.200...
Kaeptn.Blackbeards.Spuk-Kasc...
Die.Klavierspielerin.2001.Ge...
The.Quiet.American.Der.Still...
Junebug.2005.German.AC3D.DL....
Breaking.In.2018.UNRATED.Ger...
Delicious.2013.German.DL.108...

 
 
Die.Biene.Maja.2.Die.Honigspiele.2018.German.AC3D.DL.720p.BluRay.x264-PS

Jahr: 2018
Genre: Animation, Familie
Sprache: Deutsch AC3 | Englisch DTS
Laufzeit: 1h 24mn
Bitrate: 4 658 Kbps
Format: MKV
Größe: 2.76 GiB
Release:

Beschreibung:
Die kleine Biene Maja (Stimme: Theresa Zertani) ist ganz aufgeregt: Die Kaiserin (Andrea Sawatzki) von Summtropolis hat einen Boten zur Klatschmohnwiese geschickt und Maja hofft, dass er eine Einladung zu den bevorstehenden Honigspielen überbringt. Da ist die Enttäuschung groß, als der Gesandte stattdessen die Hälfte der Honigvorräte für die Spiele einfordert. Ohne den Honig kann Majas Bienenstock den kommenden Winter jedoch kaum überstehen und so beschließt die kleine Biene empört, mit ihrem Freund Willi (Jan Delay) nach Summtropolis zu reisen, um der Kaiserin die Meinung zu sagen. Doch die ist gar nicht erfreut, dass einer ihrer Untertanen so frech zu ihr ist, und will Maja eine Lektion erteilen: Sie darf an den Honigspielen teilnehmen, doch unter hohem Einsatz, denn wenn Maja mit ihrem Team verliert, müssen die Bienen der Klatschmohnwiese ihren gesamten Honig abgeben! Das darf nicht geschehen und Maja beginnt, fleißig für den Wettbewerb zu trainieren…


Complete name                            : ps-maja2.dubed.72.mkv
Format                                   : Matroska
Format version                           : Version 2
File size                                : 2.76 GiB
Duration                                 : 1h 24mn
Overall bit rate                         : 4 658 Kbps
Encoded date                             : UTC 2018-09-05 23:36:10
Writing application                      : mkvmerge v3.4.0 ('Rapunzel') gebaut am May 15 2010 09:38:20
Writing library                          : libebml v0.8.0 + libmatroska v0.9.0

Video
ID                                       : 1
Format                                   : AVC
Format/Info                              : Advanced Video Codec
Format profile                           : [email protected]
Format settings, CABAC                   : Yes
Format settings, ReFrames                : 5 frames
Codec ID                                 : V_MPEG4/ISO/AVC
Duration                                 : 1h 24mn
Bit rate                                 : 2 955 Kbps
Width                                    : 1 280 pixels
Height                                   : 696 pixels
Display aspect ratio                     : 1.85:1
Frame rate mode                          : Constant
Frame rate                               : 23.976 fps
Color space                              : YUV
Chroma subsampling                       : 4:2:0
Bit depth                                : 8 bits
Scan type                                : Progressive
Bits/(Pixel*Frame)                       : 0.138
Stream size                              : 1.70 GiB (61%)
Writing library                          : x264 core 155 r2901 7d0ff22
Encoding settings                        : cabac=1 / ref=5 / deblock=1:0:0 / analyse=0x3:0x133 / me=umh / subme=7 / psy=1 / psy_rd=1.00:0.00 / mixed_ref=1 / me_range=16 / chroma_me=1 / trellis=1 / 8x8dct=1 / cqm=0 / deadzone=21,11 / fast_pskip=0 / chroma_qp_offset=-2 / threads=22 / lookahead_threads=3 / sliced_threads=0 / nr=0 / decimate=1 / interlaced=0 / bluray_compat=0 / constrained_intra=0 / bframes=3 / b_pyramid=2 / b_adapt=1 / b_bias=0 / direct=1 / weightb=1 / open_gop=0 / weightp=2 / keyint=250 / keyint_min=23 / scenecut=40 / intra_refresh=0 / rc_lookahead=40 / rc=2pass / mbtree=1 / bitrate=2955 / ratetol=1.0 / qcomp=0.60 / qpmin=0 / qpmax=69 / qpstep=4 / cplxblur=20.0 / qblur=0.5 / ip_ratio=1.40 / aq=1:1.00
Language                                 : English
Default                                  : No
Forced                                   : No

Audio #1
ID                                       : 2
Format                                   : AC-3
Format/Info                              : Audio Coding 3
Mode extension                           : CM (complete main)
Format settings, Endianness              : Big
Codec ID                                 : A_AC3
Duration                                 : 1h 24mn
Bit rate mode                            : Constant
Bit rate                                 : 192 Kbps
Channel(s)                               : 2 channels
Channel positions                        : Front: L R
Sampling rate                            : 48.0 KHz
Bit depth                                : 16 bits
Compression mode                         : Lossy
Stream size                              : 116 MiB (4%)
Language                                 : German
Default                                  : Yes
Forced                                   : Yes

Audio #2
ID                                       : 3
Format                                   : DTS
Format/Info                              : Digital Theater Systems
Mode                                     : 16
Format settings, Endianness              : Big
Codec ID                                 : A_DTS
Duration                                 : 1h 24mn
Bit rate mode                            : Constant
Bit rate                                 : 1 509 Kbps
Channel(s)                               : 6 channels
Channel positions                        : Front: L C R, Side: L R, LFE
Sampling rate                            : 48.0 KHz
Bit depth                                : 24 bits
Compression mode                         : Lossy
Delay relative to video                  : 11ms
Stream size                              : 915 MiB (32%)
Language                                 : English
Default                                  : No
Forced                                   : No


Download:
Share Online Share OnlineShare OnlineShare Online
 

Kommentare