Destination Wedding (2018) 2018 1080p720p | patching vinyl siding hole | Watch Movie
 


 

DNS SERVER AENDERNum der staatlichen Zensur zu umgehen. Sollten wir von eurem Provider geseprrt werden, nutzt den TOR BROWSER oder ändert euren DNS SERVER.

Filmwünsche können bei uns im Forum abgegeben werden

Wir Speichern Nicht




 
 
 
Top Releases
Breathe.2017.DUAL.COMPLETE.B...
Roman.J.Israel.Esq.Die.Wahrh...
The.Kings.Ring.Die.letzte.Sc...
The.Kings.Ring.Die.letzte.Sc...
Roman.J.Israel.Esq.Die.Wahrh...
Ungehorsam.2017.MULTi.COMPLE...
Der.Hauptmann.2017.German.10...
Der.Hauptmann.2017.German.72...
Ungehorsam.2017.German.DL.10...
Roman.J.Israel.Esq.Die.Wahrh...

Cinedubs
Skyscraper.2018.German.AC3LD...
Skyscraper.2018.German.AC3LD...
Die.Biene.Maja.2.Die.Honigsp...
Die.Biene.Maja.2.Die.Honigsp...
Loving.Pablo.2017.German.AC3...
Loving.Pablo.2017.German.AC3...
Oceans.Eight.2018.German.AC3...
Jurassic.World.2.Das.gefalle...
Jurassic.World.2.Das.gefalle...
The.Equalizer.2.TS.LD.German...

Neuerscheinungen 2017-18
Birth.of.the.Dragon.2016.MUL...
Birth.of.the.Dragon.2016.Ger...
Birth.of.the.Dragon.2016.Ger...
China.Salesman.2017.German.D...
China.Salesman.2017.German.7...
Global.Storm.Die.finale.Kata...
Global.Storm.Die.finale.Kata...
Dont.Move.Halt.still.2017.Ge...
Dont.Move.Halt.still.2017.Ge...
Pfad.der.Rache.2017.German.A...

XXX
Milfty.18.07.09.Danica.Dillo...
MikaelaWitt.18.07.27.Sissy.P...
MomDrips.18.07.16.Aubrey.Bla...
LoneMilf.18.07.28.Danica.Dil...
LoneMilf.18.08.04.Krissy.Lyn...
MikaelaWitt.18.05.04.You.Are...
MikaelaWitt.18.08.24.Messy.S...
MikaelaWitt.18.05.18.You.Sis...
MilfHunter.18.07.05.Alexis.F...
MikaelaWitt.18.07.06.Proposi...
MilfBody.18.07.29.Mia.Lelani...
MikaelaWitt.18.08.03.Sissy.P...
MikaelaWitt.18.05.11.Listen....
LoneMilf.18.08.08.Mercedes.C...
LoneMilf.18.08.22.Vanessa.Ca...
MetArtX.18.07.06.Cristin.Swe...
MikaelaWitt.18.07.13.Proposi...
MelenaMariaRya.18.08.22.Wet....
MilfBody.18.08.26.Veronica.A...
MilfBody.18.08.05.Cherie.Dev...

3D
Avengers.Infinity.War.3D.201...
Avengers.Infinity.War.3D.201...
Rampage.Big.Meets.Bigger.3D....
Rampage.Big.Meets.Bigger.3D....
Rampage.Big.Meets.Bigger.3D....
Winter.Games.3D.2013.DUAL.CO...
Tomb.Raider.3D.2018.German.7...
Rampage.Big.Meets.Bigger.3D....
Rampage.Big.Meets.Bigger.3D....
Tomb.Raider.3D.2018.MULTi.CO...
Pacific.Rim.Uprising.3D.2018...
Ready.Player.One.3D.2018.Ger...
Rampage.-.Big.Meets.Bigger.2...
Ready.Player.One.2018.3D.HOU...
Ready.Player.One.2018.3D.HSB...

Old_Stuff
Vikings.S02.German.DL.1080p....
Be.Kind.Rewind.Abgedreht.200...
Be.Kind.Rewind.Abgedreht.200...
Dracula.The.Dark.Lord.2012.G...
21.2008.German.DL.1080p.BluR...
Achtung.fertig.WK.Swissgerma...
The.Ouija.Exorcism.2015.MULT...
Meine.liebe.Rabenmutter.germ...
Da.Vincis.Demons.S01.Complet...
Eragon.Das.Vermaechtnis.der....
Adele.und.das.Geheimnis.des....
Die.fabelhafte.Welt.der.Amel...
Haus.des.Geldes.S01.German.M...
How.I.Met.Your.Mother.S01.Ge...
The.Dark.Knight.Rises.2012.M...

Filme
Mr.Mercedes.S02.German.DD+51...
Mr.Mercedes.S02.German.DD+51...
The.Handmaids.Tale.S02.Germa...
The.Handmaids.Tale.S02.Germa...
Manta.Manta.1991.German.DD51...
Manta.der.Film.1991.German.D...
Die.Stunde.der.Patrioten.199...
El.Topo.1970.German.AC3D.DL....
Eine.Reihe.betrueblicher.Ere...
Wendy.2.Freundschaft.fuer.im...
Batman.Gotham.by.Gaslight.20...
Code.Blue.2011.German.1080p....
Der.Soeldner.1982.German.AC3...
Better.Off.Dead.Lanny.Dreht....
Unsere.Erde.2.2017.GERMAN.DL...
Die.Spur.2017.GERMAN.DL.1080...
Guilty.of.Romance.2011.Germa...
SIX.S01-S02.COMPLETE.German....
SIX.S01-S02.COMPLETE.German....
The.Last.Man.On.Earth.S04.Ge...
The.Last.Man.On.Earth.S04.Ge...
Arrow.S06.GERMAN.DL.1080p.HD...
Arrow.S06.GERMAN.DL.720p.HDT...
Housefull.Das.Spiel.mit.der....

 
 
Der.Hauptmann.2017.German.1080p.BluRay.x264-MOViEiT

Jahr: 2017
Genre: Drama, Krieg
Sprache: Deutsch DTS
Laufzeit: 1h 59mn
Bitrate: 4 348 Kbps
Format: MKV
Größe: 3.63 GiB
Release:

Beschreibung:

1945, gegen Ende des Zweiten Weltkrieges, irgendwo im deutschen Niemandsland: Der Gefreite Willi Herold (Max Hubacher) wird von dem gnadenlosen Hauptmann Junker (Alexander Fehling), der ihn für einen Deserteur hält, erbarmungslos gejagt. Doch kurz vor seinem erwarteten Tod entdeckt Willi in einem Auto am Straßenrand eine mit Orden versehene Hauptmannsuniform der Luftwaffe, die er kurzerhand überstreift. Mit der Uniform schlüpft er schnell auch in die dazugehörige Rolle und beginnt, verstreute Soldaten um sich zu scharen, darunter Freytag (Milan Peschel) und Kipinski (Frederick Lau). Willi testet seine neu gewonnene Verfügungsgewalt aus. Seine ehemaligen Kameraden sind froh, einen vermeintlichen Befehlshaber gefunden zu haben, der ihnen sagt, was sie tun sollen, doch Herold verfällt schon bald der Versuchung der Macht...



Complete name                            : mi-hauptmann-1080p.mkv
Format                                   : Matroska
Format version                           : Version 4 / Version 2
File size                                : 3.63 GiB
Duration                                 : 1h 59mn
Overall bit rate                         : 4 348 Kbps
Encoded date                             : UTC 2018-09-06 03:25:43
Writing application                      : mkvmerge v24.0.0 ('Beyond The Pale') 32-bit
Writing library                          : libebml v1.3.6 + libmatroska v1.4.9
DURATION                                 : 01:59:24.086000000
NUMBER_OF_FRAMES                         : 671633
NUMBER_OF_BYTES                          : 1351325596
_STATISTICS_WRITING_APP                  : mkvmerge v24.0.0 ('Beyond The Pale') 32-bit
_STATISTICS_WRITING_DATE_UTC             : 2018-09-06 03:25:43
_STATISTICS_TAGS                         : BPS DURATION NUMBER_OF_FRAMES NUMBER_OF_BYTES

Video
ID                                       : 1
Format                                   : AVC
Format/Info                              : Advanced Video Codec
Format profile                           : [email protected]
Format settings, CABAC                   : Yes
Format settings, ReFrames                : 5 frames
Codec ID                                 : V_MPEG4/ISO/AVC
Duration                                 : 1h 59mn
Bit rate                                 : 2 752 Kbps
Width                                    : 1 920 pixels
Height                                   : 808 pixels
Display aspect ratio                     : 2.40:1
Frame rate mode                          : Constant
Frame rate                               : 23.976 fps
Color space                              : YUV
Chroma subsampling                       : 4:2:0
Bit depth                                : 8 bits
Scan type                                : Progressive
Bits/(Pixel*Frame)                       : 0.074
Stream size                              : 2.30 GiB (63%)
Writing library                          : x264 core 155 r2901 7d0ff22
Encoding settings                        : cabac=1 / ref=5 / deblock=1:-1:-1 / analyse=0x3:0x113 / me=umh / subme=7 / psy=1 / psy_rd=1.00:0.00 / mixed_ref=1 / me_range=16 / chroma_me=1 / trellis=1 / 8x8dct=1 / cqm=0 / deadzone=21,11 / fast_pskip=0 / chroma_qp_offset=-2 / threads=12 / lookahead_threads=2 / sliced_threads=0 / nr=0 / decimate=1 / interlaced=0 / bluray_compat=0 / constrained_intra=0 / bframes=3 / b_pyramid=2 / b_adapt=1 / b_bias=0 / direct=3 / weightb=1 / open_gop=0 / weightp=2 / keyint=250 / keyint_min=23 / scenecut=40 / intra_refresh=0 / rc_lookahead=40 / rc=crf / mbtree=1 / crf=20.0 / qcomp=0.60 / qpmin=0 / qpmax=69 / qpstep=4 / ip_ratio=1.40 / aq=1:1.00
Default                                  : Yes
Forced                                   : No

Audio
ID                                       : 2
Format                                   : DTS
Format/Info                              : Digital Theater Systems
Mode                                     : 16
Format settings, Endianness              : Big
Codec ID                                 : A_DTS
Duration                                 : 1h 59mn
Bit rate mode                            : Constant
Bit rate                                 : 1 509 Kbps
Channel(s)                               : 6 channels
Channel positions                        : Front: L C R, Side: L R, LFE
Sampling rate                            : 48.0 KHz
Bit depth                                : 24 bits
Compression mode                         : Lossy
Stream size                              : 1.26 GiB (35%)
Language                                 : German
Default                                  : Yes
Forced                                   : No


Download:
Share Online Share OnlineShare OnlineShare Online
 

Kommentare